hit counter
Tenet.2020.iTA-ENG.Bluray.2160p.HDR.DTS.x265-CYBER.mkv > 영화 > 토렌트서치 > 토렌트의 중심
 [구글검색] 구글에서 또렌트 검색 - 구글에서 토렌트를 검색하실 때에 검색어 뒤에 또렌트를 꼭 붙여서 검색하세요.     또렌트에서 광고중인 웹에 문제가 있다면 상단에 나와 있는 운영자 이메일로 연락 주십시오.     사용자님의 다운로드가 완료될 때까지 저희가 함께하겠습니다. 편안하고 즐거운 시간 되십시오.

파일썬

Tenet.2020.iTA-ENG.Bluray.2160p.HDR.DTS.x265-CYBER.mkv 토렌트
  • 줄거리:    DATI - TRAMA Data di uscita: 26 agosto 2020 Genere: Azione, Fantascienza, Thriller Anno: 2020 Regia: Christopher Nolan Attori: John David Washington, Robert Pattinson, Elizabeth Debicki, Aaron Taylor-Johnson, Clémence Poésy, Michael Caine, Kenneth Branagh, Dimple Kapadia, Himesh Patel, Fiona Dourif, Andrew Howard, Martin Donovan Paese: Gran Bretagna, USA Durata: 149 min Distribuzione: Warner Bros. Pictures Armato di una sola parola - Tenet - e in lotta per la sopravvivenza di tutto il mondo, il Protagonista è coinvolto in una missione attraverso il mondo crepuscolare dello spionaggio internazionale, che si svolgerà al di là del tempo reale. Non un viaggio nel tempo ma Inversione del flusso del tempo. IMMAGINI DATI - TRAMA Data di uscita: 26 agosto 2020 Genere: Azione, Fantascienza, Thriller Anno: 2020 Regia: Christopher Nolan Attori: John David Washington, Robert Pattinson, Elizabeth Debicki, Aaron Taylor-Johnson, Clémence Poésy, Michael Caine, Kenneth Branagh, Dimple Kapadia, Himesh Patel, Fiona Dourif, Andrew Howard, Martin Donovan Paese: Gran Bretagna, USA Durata: 149 min Distribuzione: Warner Bros. Pictures Armato di una sola parola - Tenet - e in lotta per la sopravvivenza di tutto il mondo, il Protagonista è coinvolto in una missione attraverso il mondo crepuscolare dello spionaggio internazionale, che si svolgerà al di là del tempo reale. Non un viaggio nel tempo ma Inversione del flusso del tempo. IMMAGINI REPORT General Unique ID : 167716228639292130640081817748606152313 (0x7E2CF87F1D454ECE17EACB88553DEE79) Complete name : D:\Tenet.2020\Tenet.2020.iTA-ENG.Bluray.2160p.HDR.DTS.x265-CYBER.mkv Format : Matroska Format version : Version 2 File size : 31.4 GiB Duration : 2 h 30 min Overall bit rate mode : Variable Overall bit rate : 29.9 Mb/s Movie name : "ENJOY" Encoded date : UTC 2021-03-04 20:19:00 Writing application : mkvmerge v45.0.0 (Heaven in Pennies) 64-bit Writing library : libebml v1.3.10 + libmatroska v1.5.2 Video ID : 1 Format : HEVC Format/Info : High Efficiency Video Coding Format profile : Main [email protected]@Main HDR format : SMPTE ST 2086, HDR10 compatible Codec ID : V_MPEGH/ISO/HEVC Duration : 2 h 30 min Bit rate : 25.4 Mb/s Width : 3 840 pixels Height : 2 160 pixels Display aspect ratio : 16:9 Frame rate mode : Constant Frame rate : 23.976 (24000/1001) FPS Color space : YUV Chroma subsampling : 4:2:0 (Type 2) Bit depth : 10 bits Bits/(Pixel*Frame) : 0.128 Stream size : 26.6 GiB (85%) Title : CtrlHD Writing library : x265 3.4+26-ga82c6c7a7:[Windows][GCC 10.2.1][64 bit] 10bit Encoding settings : cpuid=1111039 / frame-threads=4 / numa-pools=24 / wpp / no-pmode / no-pme / no-psnr / no-ssim / log-level=2 / input-csp=1 / input-res=3840x2160 / interlace=0 / total-frames=216024 / level-idc=0 / high-tier=1 / uhd-bd=0 / ref=4 / no-allow-non-conformance / repeat-headers / annexb / aud / no-hrd / info / hash=0 / no-temporal-layers / open-gop / min-keyint=23 / keyint=250 / gop-lookahead=0 / bframes=4 / b-adapt=2 / b-pyramid / bframe-bias=0 / rc-lookahead=40 / lookahead-slices=4 / scenecut=40 / hist-scenecut=0 / radl=0 / no-splice / no-intra-refresh / ctu=64 / min-cu-size=8 / no-rect / no-amp / max-tu-size=32 / tu-inter-depth=4 / tu-intra-depth=4 / limit-tu=4 / rdoq-level=2 / dynamic-rd=0.00 / no-ssim-rd / signhide / no-tskip / nr-intra=0 / nr-inter=0 / no-constrained-intra / strong-intra-smoothing / max-merge=4 / limit-refs=1 / limit-modes / me=3 / subme=5 / merange=57 / temporal-mvp / no-frame-dup / no-hme / weightp / no-weightb / no-analyze-src-pics / deblock=0:0 / no-sao / no-sao-non-deblock / rd=4 / selective-sao=0 / no-early-skip / rskip / rskip-edge-threshold=0.050000 / no-fast-intra / no-tskip-fast / no-cu-lossless / no-b-intra / no-splitrd-skip / rdpenalty=0 / psy-rd=2.00 / psy-rdoq=2.10 / no-rd-refine / no-lossless / cbqpoffs=-2 / crqpoffs=-2 / rc=crf / crf=18.6 / qcomp=0.60 / qpstep=4 / stats-write=0 / stats-read=0 / ipratio=1.40 / pbratio=1.30 / aq-mode=4 / aq-strength=0.90 / no-cutree / zone-count=0 / no-strict-cbr / qg-size=32 / no-rc-grain / qpmax=69 / qpmin=0 / no-const-vbv / sar=0 / overscan=0 / videoformat=5 / range=0 / colorprim=9 / transfer=16 / colormatrix=9 / chromaloc=1 / chromaloc-top=2 / chromaloc-bottom=2 / display-window=0 / master-display=G(13250,34500)B(7500,3000)R(34000,16000)WP(15635,16450)L(40000000,50) / cll=349,86 / min-luma=0 / max-luma=1023 / log2-max-poc-lsb=8 / vui-timing-info / vui-hrd-info / slices=1 / no-opt-qp-pps / no-opt-ref-list-length-pps / no-multi-pass-opt-rps / scenecut-bias=0.05 / hist-threshold=0.03 / no-opt-cu-delta-qp / no-aq-motion / hdr10 / hdr10-opt / no-dhdr10-opt / no-idr-recovery-sei / analysis-reuse-level=0 / analysis-save-reuse-level=0 / analysis-load-reuse-level=0 / scale-factor=0 / refine-intra=0 / refine-inter=0 / refine-mv=1 / refine-ctu-distortion=0 / no-limit-sao / ctu-info=0 / no-lowpass-dct / refine-analysis-type=0 / copy-pic=1 / max-ausize-factor=1.0 / no-dynamic-refine / no-single-sei / no-hevc-aq / no-svt / no-field / qp-adaptation-range=1.00 / no-scenecut-aware-qpconformance-window-offsets / right=0 / bottom=0 / decoder-max-rate=0 / no-vbv-live-multi-pass Language : English Default : Yes Forced : No Color range : Limited Color primaries : BT.2020 Transfer characteristics : PQ Matrix coefficients : BT.2020 non-constant Mastering display color primaries : Display P3 Mastering display luminance : min: 0.0050 cd/m2, max: 4000 cd/m2 Maximum Content Light Level : 349 cd/m2 Maximum Frame-Average Light Level : 86 cd/m2 Audio #1 ID : 2 Format : DTS XLL Format/Info : Digital Theater Systems Commercial name : DTS-HD Master Audio Codec ID : A_DTS Duration : 2 h 30 min Bit rate mode : Variable Bit rate : 2 377 kb/s Channel(s) : 6 channels Channel layout : C L R Ls Rs LFE Sampling rate : 48.0 kHz Frame rate : 93.750 FPS (512 SPF) Bit depth : 16 bits Compression mode : Lossless Stream size : 2.49 GiB (8%) Title : DTS-HD MA Language : Italian Default : Yes Forced : No Audio #2 ID : 3 Format : AC-3 Format/Info : Audio Coding 3 Commercial name : Dolby Digital Codec ID : A_AC3 Duration : 2 h 30 min Bit rate mode : Constant Bit rate : 640 kb/s Channel(s) : 6 channels Channel layout : L R C LFE Ls Rs Sampling rate : 48.0 kHz Frame rate : 31.250 FPS (1536 SPF) Compression mode : Lossy Delay relative to video : 31 ms Stream size : 687 MiB (2%) Language : Italian Service kind : Complete Main Default : No Forced : No Audio #3 ID : 4 Format : DTS Format/Info : Digital Theater Systems Codec ID : A_DTS Duration : 2 h 30 min Bit rate mode : Constant Bit rate : 1 509 kb/s Channel(s) : 6 channels Channel layout : C L R Ls Rs LFE Sampling rate : 48.0 kHz Frame rate : 93.750 FPS (512 SPF) Bit depth : 24 bits Compression mode : Lossy Stream size : 1.58 GiB (5%) Language : English Default : No Forced : No Text #1 ID : 5 Format : UTF-8 Codec ID : S_TEXT/UTF8 Codec ID/Info : UTF-8 Plain Text Duration : 2 h 12 min Bit rate : 0 b/s Count of elements : 16 Stream size : 317 Bytes (0%) Title : FORCED Language : Italian Default : Yes Forced : No Text #2 ID : 6 Format : UTF-8 Codec ID : S_TEXT/UTF8 Codec ID/Info : UTF-8 Plain Text Duration : 2 h 24 min Bit rate : 58 b/s Count of elements : 2110 Stream size : 61.4 KiB (0%) Title : REGOLARI Language : Italian Default : No Forced : No Text #3 ID : 7 Format : UTF-8 Codec ID : S_TEXT/UTF8 Codec ID/Info : UTF-8 Plain Text Duration : 2 h 26 min Bit rate : 59 b/s Count of elements : 2137 Stream size : 63.5 KiB (0%) Title : NON UDENTI Language : English Default : No Forced : No Menu 00:00:00.000 : :Chapter 01 00:09:39.412 : :Chapter 02 00:19:30.503 : :Chapter 03 00:28:18.405 : :Chapter 04 00:38:49.369 : :Chapter 05 00:49:20.166 : :Chapter 06 01:00:33.255 : :Chapter 07 01:09:41.511 : :Chapter 08 01:22:36.410 : :Chapter 09 01:30:54.741 : :Chapter 10 01:39:40.683 : :Chapter 11 01:51:02.322 : :Chapter 12 01:59:40.799 : :Chapter 13 02:11:42.853 : :Chapter 14 02:19:07.089 : :Chapter 15 GOOD DOWNLOAD Tenet.2020.iTA-ENG.Bluray.2160p.HDR.DTS.x265-CYBER.mkv…
  • 인기 연관 검색어 구글 검색:    
  • 관련 자료(가나다순):    BluRay - (( TENET - 테 - 넷 )) 자체자막    테넷 Tenet 2020 IMAX 1080p BluRay REMUX AVC DTS-HD MA 5 1-FGT
  • 관련 자료(시간순):    Tenet 2020 KOR HDCAM H264-BabyTorrent    Tenet 2020 iTA-ENG Bluray 2160p HDR DTS x265-CYBER mkv
  • 같은 시각 자료:    Ben-Hur (2016) 720p BluRay x264 -[MoviesFD7]    The Cold Light of Day (2012) 720p BluRay x264 -[MoviesFD7]
  직접 다운로드      무료 다운로드

Tenet.2020.iTA-ENG.Bluray.2160p.HDR.DTS.x265-CYBER.mkv       
댓글 0 조회 1 인증 0 신고 0

Tenet.2020.iTA-ENG.Bluray.2160p.HDR.DTS.x265-CYBER.mkv
Tenet.2020.iTA-ENG.Bluray.2160p.HDR.DTS.x265-CYBER.mkv
uWyK5b.jpg

DATI - TRAMA

Data di uscita: 26 agosto 2020
Genere: Azione, Fantascienza, Thriller
Anno: 2020
Regia: Christopher Nolan
Attori: John David Washington, Robert Pattinson, Elizabeth Debicki, Aaron Taylor-Johnson, Clémence Poésy, Michael Caine, Kenneth Branagh, Dimple Kapadia, Himesh Patel, Fiona Dourif, Andrew Howard, Martin Donovan
Paese: Gran Bretagna, USA
Durata: 149 min
Distribuzione: Warner Bros. Pictures


Armato di una sola parola - Tenet - e in lotta per la sopravvivenza di tutto il mondo, il Protagonista è coinvolto in una missione attraverso il mondo crepuscolare dello spionaggio internazionale, che si svolgerà al di là del tempo reale. Non un viaggio nel tempo ma Inversione del flusso del tempo.

IMMAGINI



uWyK5b.jpg

DATI - TRAMA

Data di uscita: 26 agosto 2020
Genere: Azione, Fantascienza, Thriller
Anno: 2020
Regia: Christopher Nolan
Attori: John David Washington, Robert Pattinson, Elizabeth Debicki, Aaron Taylor-Johnson, Clémence Poésy, Michael Caine, Kenneth Branagh, Dimple Kapadia, Himesh Patel, Fiona Dourif, Andrew Howard, Martin Donovan
Paese: Gran Bretagna, USA
Durata: 149 min
Distribuzione: Warner Bros. Pictures


Armato di una sola parola - Tenet - e in lotta per la sopravvivenza di tutto il mondo, il Protagonista è coinvolto in una missione attraverso il mondo crepuscolare dello spionaggio internazionale, che si svolgerà al di là del tempo reale. Non un viaggio nel tempo ma Inversione del flusso del tempo.

IMMAGINI





REPORT

General
Unique ID : 167716228639292130640081817748606152313 (0x7E2CF87F1D454ECE17EACB88553DEE79)
Complete name : D:\Tenet.2020\Tenet.2020.iTA-ENG.Bluray.2160p.HDR.DTS.x265-CYBER.mkv
Format : Matroska
Format version : Version 2
File size : 31.4 GiB
Duration : 2 h 30 min
Overall bit rate mode : Variable
Overall bit rate : 29.9 Mb/s
Movie name : "ENJOY"
Encoded date : UTC 2021-03-04 20:19:00
Writing application : mkvmerge v45.0.0 (Heaven in Pennies) 64-bit
Writing library : libebml v1.3.10 + libmatroska v1.5.2

Video
ID : 1
Format : HEVC
Format/Info : High Efficiency Video Coding
Format profile : Main [email protected]@Main
HDR format : SMPTE ST 2086, HDR10 compatible
Codec ID : V_MPEGH/ISO/HEVC
Duration : 2 h 30 min
Bit rate : 25.4 Mb/s
Width : 3 840 pixels
Height : 2 160 pixels
Display aspect ratio : 16:9
Frame rate mode : Constant
Frame rate : 23.976 (24000/1001) FPS
Color space : YUV
Chroma subsampling : 4:2:0 (Type 2)
Bit depth : 10 bits
Bits/(Pixel*Frame) : 0.128
Stream size : 26.6 GiB (85%)
Title : CtrlHD
Writing library : x265 3.4+26-ga82c6c7a7:[Windows][GCC 10.2.1][64 bit] 10bit
Encoding settings : cpuid=1111039 / frame-threads=4 / numa-pools=24 / wpp / no-pmode / no-pme / no-psnr / no-ssim / log-level=2 / input-csp=1 / input-res=3840x2160 / interlace=0 / total-frames=216024 / level-idc=0 / high-tier=1 / uhd-bd=0 / ref=4 / no-allow-non-conformance / repeat-headers / annexb / aud / no-hrd / info / hash=0 / no-temporal-layers / open-gop / min-keyint=23 / keyint=250 / gop-lookahead=0 / bframes=4 / b-adapt=2 / b-pyramid / bframe-bias=0 / rc-lookahead=40 / lookahead-slices=4 / scenecut=40 / hist-scenecut=0 / radl=0 / no-splice / no-intra-refresh / ctu=64 / min-cu-size=8 / no-rect / no-amp / max-tu-size=32 / tu-inter-depth=4 / tu-intra-depth=4 / limit-tu=4 / rdoq-level=2 / dynamic-rd=0.00 / no-ssim-rd / signhide / no-tskip / nr-intra=0 / nr-inter=0 / no-constrained-intra / strong-intra-smoothing / max-merge=4 / limit-refs=1 / limit-modes / me=3 / subme=5 / merange=57 / temporal-mvp / no-frame-dup / no-hme / weightp / no-weightb / no-analyze-src-pics / deblock=0:0 / no-sao / no-sao-non-deblock / rd=4 / selective-sao=0 / no-early-skip / rskip / rskip-edge-threshold=0.050000 / no-fast-intra / no-tskip-fast / no-cu-lossless / no-b-intra / no-splitrd-skip / rdpenalty=0 / psy-rd=2.00 / psy-rdoq=2.10 / no-rd-refine / no-lossless / cbqpoffs=-2 / crqpoffs=-2 / rc=crf / crf=18.6 / qcomp=0.60 / qpstep=4 / stats-write=0 / stats-read=0 / ipratio=1.40 / pbratio=1.30 / aq-mode=4 / aq-strength=0.90 / no-cutree / zone-count=0 / no-strict-cbr / qg-size=32 / no-rc-grain / qpmax=69 / qpmin=0 / no-const-vbv / sar=0 / overscan=0 / videoformat=5 / range=0 / colorprim=9 / transfer=16 / colormatrix=9 / chromaloc=1 / chromaloc-top=2 / chromaloc-bottom=2 / display-window=0 / master-display=G(13250,34500)B(7500,3000)R(34000,16000)WP(15635,16450)L(40000000,50) / cll=349,86 / min-luma=0 / max-luma=1023 / log2-max-poc-lsb=8 / vui-timing-info / vui-hrd-info / slices=1 / no-opt-qp-pps / no-opt-ref-list-length-pps / no-multi-pass-opt-rps / scenecut-bias=0.05 / hist-threshold=0.03 / no-opt-cu-delta-qp / no-aq-motion / hdr10 / hdr10-opt / no-dhdr10-opt / no-idr-recovery-sei / analysis-reuse-level=0 / analysis-save-reuse-level=0 / analysis-load-reuse-level=0 / scale-factor=0 / refine-intra=0 / refine-inter=0 / refine-mv=1 / refine-ctu-distortion=0 / no-limit-sao / ctu-info=0 / no-lowpass-dct / refine-analysis-type=0 / copy-pic=1 / max-ausize-factor=1.0 / no-dynamic-refine / no-single-sei / no-hevc-aq / no-svt / no-field / qp-adaptation-range=1.00 / no-scenecut-aware-qpconformance-window-offsets / right=0 / bottom=0 / decoder-max-rate=0 / no-vbv-live-multi-pass
Language : English
Default : Yes
Forced : No
Color range : Limited
Color primaries : BT.2020
Transfer characteristics : PQ
Matrix coefficients : BT.2020 non-constant
Mastering display color primaries : Display P3
Mastering display luminance : min: 0.0050 cd/m2, max: 4000 cd/m2
Maximum Content Light Level : 349 cd/m2
Maximum Frame-Average Light Level : 86 cd/m2

Audio #1
ID : 2
Format : DTS XLL
Format/Info : Digital Theater Systems
Commercial name : DTS-HD Master Audio
Codec ID : A_DTS
Duration : 2 h 30 min
Bit rate mode : Variable
Bit rate : 2 377 kb/s
Channel(s) : 6 channels
Channel layout : C L R Ls Rs LFE
Sampling rate : 48.0 kHz
Frame rate : 93.750 FPS (512 SPF)
Bit depth : 16 bits
Compression mode : Lossless
Stream size : 2.49 GiB (8%)
Title : DTS-HD MA
Language : Italian
Default : Yes
Forced : No

Audio #2
ID : 3
Format : AC-3
Format/Info : Audio Coding 3
Commercial name : Dolby Digital
Codec ID : A_AC3
Duration : 2 h 30 min
Bit rate mode : Constant
Bit rate : 640 kb/s
Channel(s) : 6 channels
Channel layout : L R C LFE Ls Rs
Sampling rate : 48.0 kHz
Frame rate : 31.250 FPS (1536 SPF)
Compression mode : Lossy
Delay relative to video : 31 ms
Stream size : 687 MiB (2%)
Language : Italian
Service kind : Complete Main
Default : No
Forced : No

Audio #3
ID : 4
Format : DTS
Format/Info : Digital Theater Systems
Codec ID : A_DTS
Duration : 2 h 30 min
Bit rate mode : Constant
Bit rate : 1 509 kb/s
Channel(s) : 6 channels
Channel layout : C L R Ls Rs LFE
Sampling rate : 48.0 kHz
Frame rate : 93.750 FPS (512 SPF)
Bit depth : 24 bits
Compression mode : Lossy
Stream size : 1.58 GiB (5%)
Language : English
Default : No
Forced : No

Text #1
ID : 5
Format : UTF-8
Codec ID : S_TEXT/UTF8
Codec ID/Info : UTF-8 Plain Text
Duration : 2 h 12 min
Bit rate : 0 b/s
Count of elements : 16
Stream size : 317 Bytes (0%)
Title : FORCED
Language : Italian
Default : Yes
Forced : No

Text #2
ID : 6
Format : UTF-8
Codec ID : S_TEXT/UTF8
Codec ID/Info : UTF-8 Plain Text
Duration : 2 h 24 min
Bit rate : 58 b/s
Count of elements : 2110
Stream size : 61.4 KiB (0%)
Title : REGOLARI
Language : Italian
Default : No
Forced : No

Text #3
ID : 7
Format : UTF-8
Codec ID : S_TEXT/UTF8
Codec ID/Info : UTF-8 Plain Text
Duration : 2 h 26 min
Bit rate : 59 b/s
Count of elements : 2137
Stream size : 63.5 KiB (0%)
Title : NON UDENTI
Language : English
Default : No
Forced : No

Menu
00:00:00.000 : :Chapter 01
00:09:39.412 : :Chapter 02
00:19:30.503 : :Chapter 03
00:28:18.405 : :Chapter 04
00:38:49.369 : :Chapter 05
00:49:20.166 : :Chapter 06
01:00:33.255 : :Chapter 07
01:09:41.511 : :Chapter 08
01:22:36.410 : :Chapter 09
01:30:54.741 : :Chapter 10
01:39:40.683 : :Chapter 11
01:51:02.322 : :Chapter 12
01:59:40.799 : :Chapter 13
02:11:42.853 : :Chapter 14
02:19:07.089 : :Chapter 15

GOOD DOWNLOAD

Tenet.2020.iTA-ENG.Bluray.2160p.HDR.DTS.x265-CYBER.mkv


<< 이 게시판에서 관련된 자료 목록 >>
0 Comments     0.0 / 0
 [구글검색] 구글에서 또렌트 검색 - 구글에서 토렌트를 검색하실 때에 검색어 뒤에 또렌트를 꼭 붙여서 검색하세요.     또렌트에서 광고중인 웹에 문제가 있다면 상단에 나와 있는 운영자 이메일로 연락 주십시오.     사용자님의 다운로드가 완료될 때까지 저희가 함께하겠습니다. 편안하고 즐거운 시간 되십시오.

파일썬

오늘의 업데이트
오늘의 인기 검색어
오늘의 뉴스
지금 인기끄는 자료
3일 인기 자료
주간 인기 자료