hit counter
The.Fight.Before.Christmas.2021.1080p.WEBRip.x265 > 영화 > 토렌트서치 > 토렌트의 중심
 [구글검색] 구글에서 또렌트 검색 - 구글에서 토렌트를 검색하실 때에 검색어 뒤에 또렌트를 꼭 붙여서 검색하세요.     또렌트에서 광고중인 웹에 문제가 있다면 상단에 나와 있는 운영자 이메일로 연락 주십시오.     사용자님의 다운로드가 완료될 때까지 저희가 함께하겠습니다. 편안하고 즐거운 시간 되십시오.

파일몽

The.Fight.Before.Christmas.2021.1080p.WEBRip.x265 토렌트
  • 줄거리:    Screens... (click to enlarge): Infolink -> https://www.imdb.com/title/tt15353214/MediainfoQuote:VideoID : 1Format : HEVCFormat/Info : High Efficiency Video CodingFormat profile : Main [email protected]@MainCodec ID : hev1Codec ID/Info : High Efficiency Video CodingDuration : 1 h 31 minBit rate : 2 000 kb/sWidth : 1 920 pixelsHeight : 818 pixelsDisplay aspect ratio : 2.35:1Frame rate mode : ConstantFrame rate : 23.976 (24000/1001) FPSColor space : YUVChroma subsampling : 4:2:0Bit depth : 10 bitsBits/(Pixel*Frame) : 0.053Stream size : 1.28 GiB (90%)Writing library : x265 3.3+4-rarbg-30eb4de83092:[Linux][GCC 8.3.1][64 bit] 10bitEncoding settings : cpuid=1111039 / frame-threads=4 / wpp / no-pmode / no-pme / no-psnr / no-ssim / log-level=2 / input-csp=1 / input-res=1920x818 / interlace=0 / total-frames=0 / level-idc=0 / high-tier=1 / uhd-bd=0 / ref=4 / no-allow-non-conformance / no-repeat-headers / annexb / no-aud / no-hrd / info / hash=0 / no-temporal-layers / open-gop / min-keyint=23 / keyint=250 / gop-lookahead=0 / bframes=4 / b-adapt=2 / b-pyramid / bframe-bias=0 / rc-lookahead=25 / lookahead-slices=4 / scenecut=40 / hist-scenecut=0 / radl=0 / no-splice / no-intra-refresh / ctu=64 / min-cu-size=8 / rect / no-amp / max-tu-size=32 / tu-inter-depth=1 / tu-intra-depth=1 / limit-tu=0 / rdoq-level=2 / dynamic-rd=0.00 / no-ssim-rd / signhide / no-tskip / nr-intra=0 / nr-inter=0 / no-constrained-intra / strong-intra-smoothing / max-merge=3 / limit-refs=3 / limit-modes / me=3 / subme=3 / merange=57 / temporal-mvp / no-frame-dup / no-hme / weightp / no-weightb / no-analyze-src-pics / deblock=0:0 / no-sao / no-sao-non-deblock / rd=4 / selective-sao=0 / no-early-skip / rskip / no-fast-intra / no-tskip-fast / no-cu-lossless / no-b-intra / no-splitrd-skip / rdpenalty=0 / psy-rd=2.00 / psy-rdoq=1.00 / no-rd-refine / no-lossless / cbqpoffs=0 / crqpoffs=0 / rc=abr / bitrate=2000 / qcomp=0.60 / qpstep=4 / stats-write=0 / stats-read=2 / cplxblur=20.0 / qblur=0.5 / ipratio=1.40 / pbratio=1.30 / aq-mode=3 / aq-strength=1.00 / cutree / zone-count=0 / no-strict-cbr / qg-size=32 / no-rc-grain / qpmax=69 / qpmin=0 / no-const-vbv / sar=1 / overscan=0 / videoformat=5 / range=0 / colorprim=2 / transfer=2 / colormatrix=2 / chromaloc=0 / display-window=0 / cll=0,0 / min-luma=0 / max-luma=1023 / log2-max-poc-lsb=8 / vui-timing-info / vui-hrd-info / slices=1 / no-opt-qp-pps / no-opt-ref-list-length-pps / no-multi-pass-opt-rps / scenecut-bias=0.05 / hist-threshold=0.01 / no-opt-cu-delta-qp / no-aq-motion / no-hdr10 / no-hdr10-opt / no-dhdr10-opt / no-idr-recovery-sei / analysis-reuse-level=0 / analysis-save-reuse-level=0 / analysis-load-reuse-level=0 / scale-factor=0 / refine-intra=0 / refine-inter=0 / refine-mv=1 / refine-ctu-distortion=0 / no-limit-sao / ctu-info=0 / no-lowpass-dct / refine-analysis-type=0 / copy-pic=1 / max-ausize-factor=1.0 / no-dynamic-refine / no-single-sei / no-hevc-aq / no-svt / no-field / qp-adaptation-range=1.00 / no-scenecut-aware-qpconformance-window-offsets / right=0 / bottom=0Encoded date : UTC 2021-11-25 13:14:53Tagged date : UTC 2021-11-25 13:14:53Codec configuration box : hvcCAudioID : 2Format : AAC LCFormat/Info : Advanced Audio Codec Low ComplexityCodec ID : mp4a-40-2Duration : 1 h 31 minDuration_LastFrame : -12 msBit rate mode : ConstantBit rate : 224 kb/sChannel(s) : 6 channelsChannel layout : C L R Ls Rs LFESampling rate : 48.0 kHzFrame rate : 46.875 FPS (1024 SPF)Compression mode : LossyStream size : 147 MiB (10%)Language : EnglishDefault : YesAlternate group : 1Encoded date : UTC 2021-11-25 13:14:53Tagged date : UTC 2021-11-25 13:14:53 The.Fight.Before.Christmas.2021.1080p.WEBRip.x265…
  • 인기 연관 검색어 구글 검색:    The 토렌트서치    Theft 토렌트서치    PAW Patrol The Movie 2021 1080p AMZN WEBRip 1400MB 토렌트서치    The Lion King 1994 2160p BluRay HEVC TrueHD 7 1 At 토렌트서치    주먹 The Fist of Blue Sapphire 2019 BluRay 1080p DTS 토렌트서치    Guimoon The Lightless Door 2021 1080p WEBRip x264 토렌트서치    The Witcher Nightmare of the Wolf 2021 1080p KOR H 토렌트서치    
  • 관련 자료(가나다순):    "Manos": The Hands of Fate (1966) RiffTrax triple audio 720p 10…    힛츠빌 Hitsville: The Making of Motown
  • 관련 자료(시간순):    더 넌 The Nun 2018 1080p KOR FHDRip H264 AAC-H2O    Midnight In The Switchgrass 2021 iTA-ENG Bluray 1080p DTS x264-…
  • 같은 시각 자료:    The Cabin in the Woods (2011) 720p BluRay x264 -[MoviesFD7]    Strays - Artigli (1991)1080p h264 Ac3 Ita Eng Sub Eng-MIRCrew
  직접 다운로드      무료 다운로드

The.Fight.Before.Christmas.2021.1080p.WEBRip.x265       
댓글 0 조회 3 인증 0 신고 0

The.Fight.Before.Christmas.2021.1080p.WEBRip.x265


Screens... (click to enlarge):








Infolink -> https://www.imdb.com/title/tt15353214/

Mediainfo

Quote:

Video
ID : 1
Format : HEVC
Format/Info : High Efficiency Video Coding
Format profile : Main [email protected]@Main
Codec ID : hev1
Codec ID/Info : High Efficiency Video Coding
Duration : 1 h 31 min
Bit rate : 2 000 kb/s
Width : 1 920 pixels
Height : 818 pixels
Display aspect ratio : 2.35:1
Frame rate mode : Constant
Frame rate : 23.976 (24000/1001) FPS
Color space : YUV
Chroma subsampling : 4:2:0
Bit depth : 10 bits
Bits/(Pixel*Frame) : 0.053
Stream size : 1.28 GiB (90%)
Writing library : x265 3.3+4-rarbg-30eb4de83092:[Linux][GCC 8.3.1][64 bit] 10bit
Encoding settings : cpuid=1111039 / frame-threads=4 / wpp / no-pmode / no-pme / no-psnr / no-ssim / log-level=2 / input-csp=1 / input-res=1920x818 / interlace=0 / total-frames=0 / level-idc=0 / high-tier=1 / uhd-bd=0 / ref=4 / no-allow-non-conformance / no-repeat-headers / annexb / no-aud / no-hrd / info / hash=0 / no-temporal-layers / open-gop / min-keyint=23 / keyint=250 / gop-lookahead=0 / bframes=4 / b-adapt=2 / b-pyramid / bframe-bias=0 / rc-lookahead=25 / lookahead-slices=4 / scenecut=40 / hist-scenecut=0 / radl=0 / no-splice / no-intra-refresh / ctu=64 / min-cu-size=8 / rect / no-amp / max-tu-size=32 / tu-inter-depth=1 / tu-intra-depth=1 / limit-tu=0 / rdoq-level=2 / dynamic-rd=0.00 / no-ssim-rd / signhide / no-tskip / nr-intra=0 / nr-inter=0 / no-constrained-intra / strong-intra-smoothing / max-merge=3 / limit-refs=3 / limit-modes / me=3 / subme=3 / merange=57 / temporal-mvp / no-frame-dup / no-hme / weightp / no-weightb / no-analyze-src-pics / deblock=0:0 / no-sao / no-sao-non-deblock / rd=4 / selective-sao=0 / no-early-skip / rskip / no-fast-intra / no-tskip-fast / no-cu-lossless / no-b-intra / no-splitrd-skip / rdpenalty=0 / psy-rd=2.00 / psy-rdoq=1.00 / no-rd-refine / no-lossless / cbqpoffs=0 / crqpoffs=0 / rc=abr / bitrate=2000 / qcomp=0.60 / qpstep=4 / stats-write=0 / stats-read=2 / cplxblur=20.0 / qblur=0.5 / ipratio=1.40 / pbratio=1.30 / aq-mode=3 / aq-strength=1.00 / cutree / zone-count=0 / no-strict-cbr / qg-size=32 / no-rc-grain / qpmax=69 / qpmin=0 / no-const-vbv / sar=1 / overscan=0 / videoformat=5 / range=0 / colorprim=2 / transfer=2 / colormatrix=2 / chromaloc=0 / display-window=0 / cll=0,0 / min-luma=0 / max-luma=1023 / log2-max-poc-lsb=8 / vui-timing-info / vui-hrd-info / slices=1 / no-opt-qp-pps / no-opt-ref-list-length-pps / no-multi-pass-opt-rps / scenecut-bias=0.05 / hist-threshold=0.01 / no-opt-cu-delta-qp / no-aq-motion / no-hdr10 / no-hdr10-opt / no-dhdr10-opt / no-idr-recovery-sei / analysis-reuse-level=0 / analysis-save-reuse-level=0 / analysis-load-reuse-level=0 / scale-factor=0 / refine-intra=0 / refine-inter=0 / refine-mv=1 / refine-ctu-distortion=0 / no-limit-sao / ctu-info=0 / no-lowpass-dct / refine-analysis-type=0 / copy-pic=1 / max-ausize-factor=1.0 / no-dynamic-refine / no-single-sei / no-hevc-aq / no-svt / no-field / qp-adaptation-range=1.00 / no-scenecut-aware-qpconformance-window-offsets / right=0 / bottom=0
Encoded date : UTC 2021-11-25 13:14:53
Tagged date : UTC 2021-11-25 13:14:53
Codec configuration box : hvcC

Audio
ID : 2
Format : AAC LC
Format/Info : Advanced Audio Codec Low Complexity
Codec ID : mp4a-40-2
Duration : 1 h 31 min
Duration_LastFrame : -12 ms
Bit rate mode : Constant
Bit rate : 224 kb/s
Channel(s) : 6 channels
Channel layout : C L R Ls Rs LFE
Sampling rate : 48.0 kHz
Frame rate : 46.875 FPS (1024 SPF)
Compression mode : Lossy
Stream size : 147 MiB (10%)
Language : English
Default : Yes
Alternate group : 1
Encoded date : UTC 2021-11-25 13:14:53
Tagged date : UTC 2021-11-25 13:14:53

The.Fight.Before.Christmas.2021.1080p.WEBRip.x265


<< 이 게시판에서 관련된 자료 목록 >>
0 Comments     0.0 / 0
 [구글검색] 구글에서 또렌트 검색 - 구글에서 토렌트를 검색하실 때에 검색어 뒤에 또렌트를 꼭 붙여서 검색하세요.     또렌트에서 광고중인 웹에 문제가 있다면 상단에 나와 있는 운영자 이메일로 연락 주십시오.     사용자님의 다운로드가 완료될 때까지 저희가 함께하겠습니다. 편안하고 즐거운 시간 되십시오.

파일몽

오늘의 업데이트
오늘의 인기 검색어
오늘의 뉴스
지금 인기끄는 자료
3일 인기 자료
주간 인기 자료