hit counter
South.Park.Post.Covid.2021.WEBRip.x264-ION10 > 영화 > 토렌트서치 > 토렌트의 중심
 [구글검색] 구글에서 또렌트 검색 - 구글에서 토렌트를 검색하실 때에 검색어 뒤에 또렌트를 꼭 붙여서 검색하세요.     또렌트에서 광고중인 웹에 문제가 있다면 상단에 나와 있는 운영자 이메일로 연락 주십시오.     사용자님의 다운로드가 완료될 때까지 저희가 함께하겠습니다. 편안하고 즐거운 시간 되십시오.

파일몽

South.Park.Post.Covid.2021.WEBRip.x264-ION10 토렌트
  • 줄거리:    Screens... (click to enlarge): Infolink -> https://www.imdb.com/title/tt15178196/MediainfoQuote:VideoID : 1Format : AVCFormat/Info : Advanced Video CodecFormat profile : [email protected]Format settings : CABAC / 5 Ref FramesFormat settings, CABAC : YesFormat settings, Reference frames : 5 framesCodec ID : avc1Codec ID/Info : Advanced Video CodingDuration : 59 min 27 sBit rate : 1 100 kb/sWidth : 720 pixelsHeight : 400 pixelsDisplay aspect ratio : 16:9Frame rate mode : ConstantFrame rate : 24.000 FPSColor space : YUVChroma subsampling : 4:2:0Bit depth : 8 bitsScan type : ProgressiveBits/(Pixel*Frame) : 0.159Stream size : 468 MiB (81%)Title : RARBG - South.Park.Post.Covid.2021.WEBRip.x264-ION10Writing library : x264 core 152 r2851M ba24899Encoding settings : cabac=1 / ref=5 / deblock=1:-1:-1 / analyse=0x3:0x113 / me=umh / subme=9 / psy=1 / psy_rd=1.00:0.15 / mixed_ref=1 / me_range=16 / chroma_me=1 / trellis=2 / 8x8dct=1 / cqm=0 / deadzone=21,11 / fast_pskip=1 / chroma_qp_offset=-3 / threads=16 / lookahead_threads=1 / sliced_threads=0 / nr=0 / decimate=1 / interlaced=0 / bluray_compat=0 / constrained_intra=0 / bframes=3 / b_pyramid=2 / b_adapt=2 / b_bias=0 / direct=3 / weightb=1 / open_gop=0 / weightp=2 / keyint=250 / keyint_min=24 / scenecut=40 / intra_refresh=0 / rc_lookahead=50 / rc=2pass / mbtree=1 / bitrate=1100 / ratetol=1.0 / qcomp=0.60 / qpmin=0 / qpmax=69 / qpstep=4 / cplxblur=20.0 / qblur=0.5 / ip_ratio=1.40 / aq=1:1.00Language : EnglishEncoded date : UTC 2021-11-25 11:03:48Tagged date : UTC 2021-11-25 11:03:48Codec configuration box : avcCAudioID : 2Format : AAC LCFormat/Info : Advanced Audio Codec Low ComplexityCodec ID : mp4a-40-2Duration : 59 min 27 sBit rate mode : ConstantBit rate : 256 kb/sChannel(s) : 2 channelsChannel layout : L RSampling rate : 48.0 kHzFrame rate : 46.875 FPS (1024 SPF)Compression mode : LossyStream size : 109 MiB (19%)Title : RARBG - South.Park.Post.Covid.2021.WEBRip.x264-ION10Language : EnglishDefault : YesAlternate group : 1Encoded date : UTC 2021-11-25 11:03:48Tagged date : UTC 2021-11-25 11:03:48 South.Park.Post.Covid.2021.WEBRip.x264-ION10…
  • 인기 연관 검색어 구글 검색:    Southland 토렌트서치    south 토렌트서치    
  • 관련 자료(가나다순):    Amar Akbhar Anthoni (2019) South Hindi Dubbed 720p WBERip    저니 투 더 사우스 퍼시픽 Journey To The South Pacific 2013 1080p BluRay x…
  • 관련 자료(시간순):    4K/다큐 남태평양 여행 Journey to the South Pacific 2013 2160p UHD BluRa…    South Park Post Covid 2021 1080p WEBRip x264
  • 같은 시각 자료:    South.Park.Post.Covid.2021.1080p.WEBRip.x264    South.Park.Post.Covid.2021.1080p.WEBRip.x265
  직접 다운로드      무료 다운로드

South.Park.Post.Covid.2021.WEBRip.x264-ION10       
댓글 0 조회 2 인증 0 신고 0

South.Park.Post.Covid.2021.WEBRip.x264-ION10
South.Park.Post.Covid.2021.WEBRip.x264-ION10


Screens... (click to enlarge):











Infolink -> https://www.imdb.com/title/tt15178196/

Mediainfo

Quote:

Video
ID : 1
Format : AVC
Format/Info : Advanced Video Codec
Format profile : [email protected]
Format settings : CABAC / 5 Ref Frames
Format settings, CABAC : Yes
Format settings, Reference frames : 5 frames
Codec ID : avc1
Codec ID/Info : Advanced Video Coding
Duration : 59 min 27 s
Bit rate : 1 100 kb/s
Width : 720 pixels
Height : 400 pixels
Display aspect ratio : 16:9
Frame rate mode : Constant
Frame rate : 24.000 FPS
Color space : YUV
Chroma subsampling : 4:2:0
Bit depth : 8 bits
Scan type : Progressive
Bits/(Pixel*Frame) : 0.159
Stream size : 468 MiB (81%)
Title : RARBG - South.Park.Post.Covid.2021.WEBRip.x264-ION10
Writing library : x264 core 152 r2851M ba24899
Encoding settings : cabac=1 / ref=5 / deblock=1:-1:-1 / analyse=0x3:0x113 / me=umh / subme=9 / psy=1 / psy_rd=1.00:0.15 / mixed_ref=1 / me_range=16 / chroma_me=1 / trellis=2 / 8x8dct=1 / cqm=0 / deadzone=21,11 / fast_pskip=1 / chroma_qp_offset=-3 / threads=16 / lookahead_threads=1 / sliced_threads=0 / nr=0 / decimate=1 / interlaced=0 / bluray_compat=0 / constrained_intra=0 / bframes=3 / b_pyramid=2 / b_adapt=2 / b_bias=0 / direct=3 / weightb=1 / open_gop=0 / weightp=2 / keyint=250 / keyint_min=24 / scenecut=40 / intra_refresh=0 / rc_lookahead=50 / rc=2pass / mbtree=1 / bitrate=1100 / ratetol=1.0 / qcomp=0.60 / qpmin=0 / qpmax=69 / qpstep=4 / cplxblur=20.0 / qblur=0.5 / ip_ratio=1.40 / aq=1:1.00
Language : English
Encoded date : UTC 2021-11-25 11:03:48
Tagged date : UTC 2021-11-25 11:03:48
Codec configuration box : avcC

Audio
ID : 2
Format : AAC LC
Format/Info : Advanced Audio Codec Low Complexity
Codec ID : mp4a-40-2
Duration : 59 min 27 s
Bit rate mode : Constant
Bit rate : 256 kb/s
Channel(s) : 2 channels
Channel layout : L R
Sampling rate : 48.0 kHz
Frame rate : 46.875 FPS (1024 SPF)
Compression mode : Lossy
Stream size : 109 MiB (19%)
Title : RARBG - South.Park.Post.Covid.2021.WEBRip.x264-ION10
Language : English
Default : Yes
Alternate group : 1
Encoded date : UTC 2021-11-25 11:03:48
Tagged date : UTC 2021-11-25 11:03:48

South.Park.Post.Covid.2021.WEBRip.x264-ION10


<< 이 게시판에서 관련된 자료 목록 >>
0 Comments     0.0 / 0
 [구글검색] 구글에서 또렌트 검색 - 구글에서 토렌트를 검색하실 때에 검색어 뒤에 또렌트를 꼭 붙여서 검색하세요.     또렌트에서 광고중인 웹에 문제가 있다면 상단에 나와 있는 운영자 이메일로 연락 주십시오.     사용자님의 다운로드가 완료될 때까지 저희가 함께하겠습니다. 편안하고 즐거운 시간 되십시오.

파일썬

오늘의 업데이트
오늘의 인기 검색어
오늘의 뉴스
지금 인기끄는 자료
3일 인기 자료
주간 인기 자료