hit counter
DCs.Legends.of.Tomorrow.S07E07.1080p.WEB.H264-DEXTEROUS > 외국티비 > 토렌트서치 > 토렌트의 중심
 [구글검색] 구글에서 또렌트 검색 - 구글에서 토렌트를 검색하실 때에 검색어 뒤에 또렌트를 꼭 붙여서 검색하세요.     또렌트에서 광고중인 웹에 문제가 있다면 상단에 나와 있는 운영자 이메일로 연락 주십시오.     사용자님의 다운로드가 완료될 때까지 저희가 함께하겠습니다. 편안하고 즐거운 시간 되십시오.

파일몽

DCs.Legends.of.Tomorrow.S07E07.1080p.WEB.H264-DEXTEROUS 토렌트
  • 파일설명:     Screens... (click to enlarge): DCs.Legends.of.Tomorrow.S07E07.1080p.WEB.H264-DEXTEROUSInfolink -> https://www.imdb.com/title/tt4532368/Quote:MediainfoVideoID : 1Format : AVCFormat/Info : Advanced Video CodecFormat profile : [email protected]Format settings : CABAC / 4 Ref FramesFormat settings, CABAC : YesFormat settings, Reference frames : 4 framesCodec ID : V_MPEG4/ISO/AVCDuration : 41 min 32 sBit rate mode : ConstantBit rate : 10 000 kb/sWidth : 1 920 pixelsHeight : 1 080 pixelsDisplay aspect ratio : 16:9Frame rate mode : ConstantFrame rate : 23.976 (24000/1001) FPSColor space : YUVChroma subsampling : 4:2:0Bit depth : 8 bitsScan type : ProgressiveBits/(Pixel*Frame) : 0.201Stream size : 2.81 GiB (94%)Default : YesForced : NoColor range : LimitedColor primaries : BT.709Transfer characteristics : BT.709Matrix coefficients : BT.709AudioID : 2Format : E-AC-3Format/Info : Enhanced AC-3Commercial name : Dolby Digital PlusCodec ID : A_EAC3Duration : 41 min 32 sBit rate mode : ConstantBit rate : 640 kb/sChannel(s) : 6 channelsChannel layout : L R C LFE Ls RsSampling rate : 48.0 kHzFrame rate : 31.250 FPS (1536 SPF)Compression mode : LossyStream size : 190 MiB (6%)Language : EnglishService kind : Complete MainDefault : YesForced : NoTextID : 3Format : UTF-8Codec ID : S_TEXT/UTF8Codec ID/Info : UTF-8 Plain TextDuration : 41 min 24 sBit rate : 88 b/sCount of elements : 924Stream size : 26.9 KiB (0%)Title : English (United States)Language : EnglishDefault : NoForced : No DCs.Legends.of.Tomorrow.S07E07.1080p.WEB.H264-DEXTEROUS…
  • 인기 연관 검색어 구글 검색:    
  • 관련 자료(가나다순):    DCs Legends of Tomorrow S05E14 480p x264-mSD eztv    DCs Legends of Tomorrow S07E07 WEBRip x264-ION10
  • 관련 자료(시간순):    DCs Legends of Tomorrow S05E14 1080p WEB H264-BTX TGx ⭐    DCs Legends of Tomorrow S07E07 1080p WEB H264-DEXTEROUS
  • 같은 시각 자료:    Invasion.2021.S01E08.1080p.HEVC.x265-MeGusta[TGx]    AEW Dynamite 2021 11 24 1080p HDTV x264-NWCHD [TJET]
  직접 다운로드      무료 다운로드

DCs.Legends.of.Tomorrow.S07E07.1080p.WEB.H264-DEXTEROUS       
댓글 0 조회 2 인증 0 신고 0

DCs.Legends.of.Tomorrow.S07E07.1080p.WEB.H264-DEXTEROUS
DCs.Legends.of.Tomorrow.S07E07.1080p.WEB.H264-DEXTEROUS

Screens... (click to enlarge):





DCs.Legends.of.Tomorrow.S07E07.1080p.WEB.H264-DEXTEROUS

Infolink -> https://www.imdb.com/title/tt4532368/

Quote:

Mediainfo
Video
ID : 1
Format : AVC
Format/Info : Advanced Video Codec
Format profile : [email protected]
Format settings : CABAC / 4 Ref Frames
Format settings, CABAC : Yes
Format settings, Reference frames : 4 frames
Codec ID : V_MPEG4/ISO/AVC
Duration : 41 min 32 s
Bit rate mode : Constant
Bit rate : 10 000 kb/s
Width : 1 920 pixels
Height : 1 080 pixels
Display aspect ratio : 16:9
Frame rate mode : Constant
Frame rate : 23.976 (24000/1001) FPS
Color space : YUV
Chroma subsampling : 4:2:0
Bit depth : 8 bits
Scan type : Progressive
Bits/(Pixel*Frame) : 0.201
Stream size : 2.81 GiB (94%)
Default : Yes
Forced : No
Color range : Limited
Color primaries : BT.709
Transfer characteristics : BT.709
Matrix coefficients : BT.709

Audio
ID : 2
Format : E-AC-3
Format/Info : Enhanced AC-3
Commercial name : Dolby Digital Plus
Codec ID : A_EAC3
Duration : 41 min 32 s
Bit rate mode : Constant
Bit rate : 640 kb/s
Channel(s) : 6 channels
Channel layout : L R C LFE Ls Rs
Sampling rate : 48.0 kHz
Frame rate : 31.250 FPS (1536 SPF)
Compression mode : Lossy
Stream size : 190 MiB (6%)
Language : English
Service kind : Complete Main
Default : Yes
Forced : No

Text
ID : 3
Format : UTF-8
Codec ID : S_TEXT/UTF8
Codec ID/Info : UTF-8 Plain Text
Duration : 41 min 24 s
Bit rate : 88 b/s
Count of elements : 924
Stream size : 26.9 KiB (0%)
Title : English (United States)
Language : English
Default : No
Forced : No

DCs.Legends.of.Tomorrow.S07E07.1080p.WEB.H264-DEXTEROUS


<< 이 게시판에서 관련된 자료 목록 >>
0 Comments     0.0 / 0
 [구글검색] 구글에서 또렌트 검색 - 구글에서 토렌트를 검색하실 때에 검색어 뒤에 또렌트를 꼭 붙여서 검색하세요.     또렌트에서 광고중인 웹에 문제가 있다면 상단에 나와 있는 운영자 이메일로 연락 주십시오.     사용자님의 다운로드가 완료될 때까지 저희가 함께하겠습니다. 편안하고 즐거운 시간 되십시오.

파일썬

오늘의 업데이트
오늘의 인기 검색어
오늘의 뉴스
지금 인기끄는 자료
3일 인기 자료
주간 인기 자료